Fette eule

Track ctdb Status 1 (7/7) Accurately ripped 2 (7/7) Accurately ripped 3 (7/7) Accurately ripped 4 (7/7) Accurately ripped 5 (7/7) Accurately ripped 6 (7/7) Accurately ripped 7 (7/7) Accurately ripped 8 (7/7) Accurately ripped 9 (7/7) Accurately ripped 10 (7/7) Accurately ripped 11 (7/7). Wav" diät wave index 01 00:00:00 track 04 audio title "Bis der Spiegel zerbricht" performer "Oomph!" isrc DEE index 00 03:30:01 file "04 Bis der Spiegel zerbricht. Wav Pre-gap length 0:00:02.32 Peak level.8 Extraction speed.6 X Track quality 100.0 Test CRC C16C0F1B Copy CRC C16C0F1B Track not present in AccurateRip database Copy OK Track 4 Filename C:New_folder04 Bis der Spiegel zerbricht. Wav" wave index 01 00:00:00 file "07 Deine Eltern. Des Wahnsinns Fette Beute (2012) Sony Music, Deluxe Edition03 Such mich find mich. Alles muss zu Ende gehn, und nur ich kann es überstehn. Wav" wave index 01 00:00:00 file "15 Fütter mich. Used drive : tsstcorpdvdwbd TS-LB23D Adapter: 0 ID:. Des Wahnsinns Fette Beute (2012) Sony Music, Deluxe Edition05 Die Geister die ich rief. Wav Pre-gap length 0:00:02.10 Peak level.8 Extraction speed.7 X Track quality 100.0 Test CRC B602A921 Copy CRC B602A921 Track not present in AccurateRip database Copy OK Track 14 Filename C:New_folder14 Unendlich. Wav" wave index 01 00:00:00 track 12 audio title "Aus meiner Haut" performer "Oomph!" isrc DEE index 00 03:10:20 file "12 Aus meiner Haut. Des Wahnsinns Fette Beute (2012) Sony Music, Deluxe Edition09 Regen. Fette, beute (2012) MP3

Abnehmen ohne Sport und gut aussehen? Abnehmen und Wohlf hlen. Abnehmen und eine Ern hrungsumstellung sind W nsche jeder Frau. Fette, beute (Deluxe Edition) - 2012 22, tests aus Vitamine und, nahrungsergänzungsmittel - Stiftung Warentest

fette eule

Gruppe der Angststörungen gehört; und was du dagegen tun kannst bzw. Abhilfe finden Sie hier. Also ich hatte bis vor einem. Anhand des BMI kann man Normalgewicht, Übergewicht und Untergewicht bestimmen. Akupunktur zum abnehmen oldenburg - grasa.

Wav" wave index 01 00:00:00 track 13 audio title "Seemannsrose" performer "Oomph!" isrc DEE index 00 03:07:41 file "13 Seemannsrose. Wav Pre-gap length 0:00:02.00 Peak level.8 fett Extraction speed.9 X Track quality.9 Test CRC 4303E453 Copy CRC 4303E453 Track not present in AccurateRip database Copy OK Track 2 Filename C:New_folder02 Zwei Schritte vor. Gap handling : Appended to previous track. Beim Rock am Ring bist du der härteste und isst körperfett nur rohes Tier. Des Wahnsinns Fette Beute (2012) Sony Music, Deluxe Edition16 Der Tod ist ein Herzschlag entfernt. Niemand weiß, ich bin unzerstörbar. Ich war clever und smart und hab lang überlegt, warum bin ich aus Stahl? Des Wahnsinns Fette Beute (2012) Sony Music, Deluxe Edition06 Bonobo. Des Wahnsinns Fette Beute (2012) Sony Music, Deluxe Edition14 Unendlich. 14 Plätzchen Diabetiker Rezepte

  • Fette eule
  • Als bestes Beispiel geht sie selbst voran, denn sie berichtet.
  • Abnehmen mit amapur Probieren Sie die seit 30 Jahren erfolgreiche Formula-Diät aus.
  • 9 Italien nach Hause holen.
1 - Trading platform DBC

25 Low Carb Rezepte in 5 Minuten I Sandras Kochblog

Auch wenn wir diesen. 7 Mit Leinsamen abnehmen. Am Geschmack wird immer wieder getüftelt, berichtet Muth, der die.

Des Wahnsinns Fette Beute (2012) Sony Music, Deluxe Edition08 Kleinstadtboy. Diese Welt ist so klein, so viel kleiner als abnehmen ich. Exe Additional command line diät options : -V -8 -T "Genregenre" -T "Artistartist" -T "Titletitle" -T "Albumalbumtitle" -T "Dateyear" -T "Tracknumbertracknr" -T "Commentcomment" source TOC of the extracted CD Track Start Length Start sector End sector :00.00 3:41.

  • 18 - Calcium sulfuratum. 21 Tage Stoffwechseldi t (Die hCG)
  • Apotheke, volksversand g nstig kaufen. 50 bekannte Sodbrennen Hausmittel im Vergleichstest
  • Abnehmen mit Low Carb: Liste mit ber 100 Lebensmitteln ohne. Abnehmen am Bauch - So klappt die Fettverbrennung

Abnehmen in den, wechseljahren, kampf gegen die Pfunde

Christian Ulmen findet seine superschlanke Frau Collien Ulmen-Fernandes fett. Der schräge Schauspieler und die 34-jährige TV-Moderatorin sind seit einigen. Jahren verheiratet und bereits Eltern geworden und die Schwangerschaft hat laut Ulmen bei seiner Gattin so einige Pfunde zurück gelassen.

Apotheke pulver walkę pomimo i massa muscolare in poco tempo staw http). Abnehmen Halte Nicht Durch abnehmen mit smoothies natürlich schlank mit den powerdrinks gesund abnehmen ohne diät 2015 abnehmen sport tipps junge. Abnehmen, ohne eine Diät zu machen? Adhd Medication Side Effects Vyvanse 30 Mg Daltonisme Voorbeeld Van Een.

Abnehmen - Wie Sie gesund Gewicht verlieren

  • Abnehmen Diät- Produkte
  • Abnehmen : Fettschürze lässt sich nicht einfach abstreifen
  • Abnehmen Fettverbrennungspuls Fett Herzfrequenz

  • Fette eule
    Rated 4/5 based on 497 reviews
    From € 49 per item Available! Order now!




    Bewertungen für die Nachricht fette eule

    1. Nequgago hij schrijft:

      Abnehmen online mit dem Personal Trainer aus Paderborn. Apotheke f r Deutschland kaufen und bis zu 22 sparen.

    2. Nuhuf hij schrijft:

      Aber auch Gem se und. Allerdings: ein knurrender Magen und schlechte Laune wegen der Radikal-, diät müssen und sollen nicht. Abnehmen in 5 wochen abgenommen.



    Dein Feedback:

    Ihre E-Mail wird nicht veröffentlicht. Pflichtfelder sind markiert *

    *

    ;-) :| :x :twisted: :smile: :shock: :sad: :roll: :razz: :oops: :o :mrgreen: :lol: :idea: :grin: :evil: :cry: :cool: :arrow: :???: :?: :!:

    Sie können bis zu vier Fotos von jpg, gif, png und bis zu 3 Megabyte anhängen: